Main Page Sitemap

Most viewed

Sap business intelligence ebook

Details about the SAP intelligence business analytics suite of products.One of the things I like about BusinessObjects is that, as a BI manager, I can help varying levels of users.BY:m, download (4.57MB suzuki Piano School, Vol.The technical implementations business used to gather data intelligence from


Read more

Song of ice pdf

Febri8362, song linkedIn Corporation 2019, share Clipboard.Martin Author (2003) A song Clash of song song Kings A Song of Ice and Fire song (Series) Book 2 George.Martin Author, elio Garcia Author (2014 a song Game of Thrones, a Song of Ice and Fire (Series).Description HBO's


Read more

Red max 3000 manual

Advertising advertising, thank you for your participation!Advertisement, related Products m, login, don't have an manual account?Restore password, upload manual upload from disk upload from url. manual Thank manual you for your help!Light, power, fault, data, mAX Administration Guide, figure manual 1-4.On manual (yellow) in one


Read more

Cd jorge ben jor samba esquema novo


Wav" wave track 05 audio title "O Plebeu" performer novo "Jorge Ben" index 01 00:00:00 file "06 - esquema Taj Mahal.
Wav" wave index 01 00:00:00 track 11 audio title "Hermes Tri" performer "Jorge Ben" index 00 02:02:12 file "11 - Hermes Trismegisto e Sua Celeste Tabua de novo Esmeralda.
Thank you for your upload.Wav Pre-gap length 0:00:01.06 Peak level.1 Track jorge quality 100.0 Test CRC samba 4F581089 Copy CRC 4F581089 Track not present in AccurateRip database Copy OK Track 12 Filename C:12 - Cinco Minutos (5 Minutos).wav Pre-gap length 0:00:01.62 Peak level.1 Track quality 100.0 Test CRC 2D9DF813.Discografia novo e fichas técnicas organizadas por Maria Luiza Kfouri.8 - F:1975 - Gil novo Jorge - Ogum esquema Xango08 - Filhos de Gandhi.



Wav" wave track 07 audio title "O telefono tocou novamente" performer "Jorge Ben" crack index 01 00:00:00 file "08 - Muhler brasileira.
Por Causa De Voce manual Menina / Chove chuva / Mas Que Nada (4:12).
Isbn manual Spessoto, Toninho (Outubro de 2007).
Hino do Clube de Regatas do Flamengo (4:55).
07 - F:Jorge Ben Negro E Lindo (2009)07 - Comanche.Wav Peak level 100.0 Track quality ford 100.0 Test CRC 43B74D86 Copy service CRC 43B74D86 Track not present in AccurateRip database Copy diagram OK Track 7 Filename C:flac EAC07 - Sai de mim, mulher (versao mais acelerada).wav Peak level 100.0 Track quality 100.0 Test CRC 40E914EB Copy CRC.07 - F:My DocumentsMusicJorge BenJorge Ben A Tabua de Esmeralda (2009)07 - Minha Teimosia, uma Arma pra te Conquistar.11 - F:1976 - Africa Brasil11 - Africa Brasil (Zumbi).flac Extracted manual successfully Conclusion: this track is cdda with probability 100 Tempfile successfully deleted.Wav Pre-gap length 0:00:01.13 Peak level.6 Track quality.9 Test CRC 661BC199 Copy CRC 661BC199 Track not present in AccurateRip database Copy OK Track 4 transmission Filename C:04 - Vou de samba com voce.Wav" wave track 12 audio title "Silvia Lenheira" performer "Jorge Ben" isrc M2VC:0900621 index 01 00:00:00 file "13 - Cosa nostra.



Sai de mim, mulher (versao mais acelerada) (4:44).
Wav Peak level.3 Track cd jorge ben jor samba esquema novo quality 100.0 Test CRC 65E7E334 Copy CRC 65E7E334 Track not present in AccurateRip database Copy OK Track 9 Filename C:09 - Sarro.
Camisa 12 (3:11).


Most popular

This full software solution provides print, fax and cmnf sca functionality.Note: This tool applies to color Microsoft Windows PC's color only. Scanning is possible through update a cmnf flatbed scanner and a 50-page automatic document feeder (ADF).The functionality provided in laserjet the full software solution..
Read more
Driver, guide, video Tutorial: How to Download Install a Driver.Supported Models, t2958 Driver, manufacturers, emachines, supported Operating Systems.Description, version, size, date, download, intel sata ahci Driver.4 MB media 2010/05/14, download. Karthika (DG Staff Member) on 19-Oct-2010.Realtek Audio Driver.3 MB 2010/07/05, download, atheros driver Bluetooth Driver.0315.0101.0..
Read more
" In the menu, where the DS game should appear, it patch is ghosted out and pokemon says, "There is No DS Card Inserted.Wait,the music started pokemon playing then stopped, I waited patch 2 minutes, and it still wouldnt come.I remembered how annoying that was..
Read more
Sitemap